<?xml version="1.0" standalone="no"?>
<!DOCTYPE svg PUBLIC "-//W3C//DTD SVG 1.1//EN" "http://www.w3.org/Graphics/SVG/1.1/DTD/svg11.dtd" >
<svg xmlns="http://www.w3.org/2000/svg">
<metadata></metadata>
<defs>
<font id="tahomabold" horiz-adv-x="1304" >
<font-face units-per-em="2048" ascent="1638" descent="-410" />
<missing-glyph horiz-adv-x="600" />
<glyph horiz-adv-x="2048" />
<glyph horiz-adv-x="2048" />
<glyph unicode="&#xd;" horiz-adv-x="600" />
<glyph unicode=" "  horiz-adv-x="600" />
<glyph unicode="&#x09;" horiz-adv-x="600" />
<glyph unicode="&#xa0;" horiz-adv-x="600" />
<glyph unicode="!" horiz-adv-x="702" d="M152 1489h398l-41 -1060h-316zM154 0v264h394v-264h-394z" />
<glyph unicode="&#x22;" horiz-adv-x="1002" d="M127 1556h326l-60 -589h-206zM548 1556h326l-60 -589h-206z" />
<glyph unicode="#" horiz-adv-x="1676" d="M125 355v230h317l82 328h-282v230h339l87 346h236l-87 -346h253l87 346h236l-88 -346h246v-230h-304l-83 -328h271v-230h-329l-90 -355h-232l89 355h-254l-89 -355h-235l89 355h-259zM674 583h258l84 332h-258z" />
<glyph unicode="$" d="M96 960q0 150 125.5 255.5t349.5 127.5v233h164v-231q90 -3 206.5 -26.5t178.5 -50.5v-288h-32q-73 45 -159 71t-199 32v-254l88 -19q208 -45 308 -131.5t100 -249.5q0 -84 -35 -159t-97 -131q-63 -57 -154 -94.5t-205 -43.5v-362h-164v357q-108 1 -240 27t-209 65v290 h32q48 -31 173 -71.5t249 -45.5v277l-89 22q-77 19 -147 46t-126 74q-55 46 -86.5 111.5t-31.5 168.5zM445 968q0 -43 24 -71t114 -49v234q-56 -5 -97 -33t-41 -81zM723 263q63 6 106 35.5t43 91.5q0 50 -35.5 82t-113.5 47v-256z" />
<glyph unicode="%" horiz-adv-x="2455" d="M107 1032q0 245 112 365.5t324 120.5q216 0 323.5 -120.5t107.5 -361.5q0 -248 -110.5 -368.5t-320.5 -120.5q-216 0 -326 120t-110 365zM397 1032q0 -74 4 -117.5t22 -83.5q15 -35 44.5 -53.5t75.5 -18.5q45 0 74 18t45 54q14 32 20.5 82t6.5 120q0 63 -5.5 115 t-21.5 87t-45 52.5t-74 17.5q-48 0 -75 -17.5t-44 -53.5q-15 -32 -21 -87t-6 -115zM704 0l780 1489h264l-780 -1489h-264zM1479 454q0 245 112 365.5t324 120.5q216 0 323.5 -120.5t107.5 -361.5q0 -248 -110.5 -368.5t-320.5 -120.5q-216 0 -326 120t-110 365zM1769 454 q0 -74 4 -117.5t22 -83.5q15 -35 44.5 -53.5t75.5 -18.5q45 0 74 18t45 54q14 32 20.5 82t6.5 120q0 63 -5.5 115t-21.5 87t-45 52.5t-74 17.5q-48 0 -75 -17.5t-44 -53.5q-15 -32 -21 -87t-6 -115z" />
<glyph unicode="&#x26;" horiz-adv-x="1600" d="M85 429q0 87 23.5 149t61.5 112q35 47 82.5 82.5t92.5 61.5q-43 34 -76.5 66.5t-59.5 72.5q-26 39 -40 84.5t-14 106.5q0 65 26 127t86 115q56 49 156 81.5t233 32.5q119 0 206 -25t146 -67q57 -42 87.5 -101.5t30.5 -128.5q0 -44 -13.5 -100t-45.5 -101 q-39 -55 -101.5 -98.5t-158.5 -75.5l286 -276v322h349v-111q0 -41 -8.5 -101.5t-22.5 -103.5q-15 -49 -41.5 -101t-67.5 -99l356 -333v-20h-445l-130 126q-105 -85 -215 -121t-230 -36q-258 0 -405.5 127.5t-147.5 332.5zM463 488q0 -66 22.5 -114.5t58.5 -80.5t80.5 -48 t89.5 -16q62 0 109.5 14.5t94.5 51.5l-400 379q-16 -23 -35.5 -75.5t-19.5 -110.5zM520 1168q0 -59 39.5 -110.5t109.5 -109.5q48 44 72.5 94t24.5 112q0 50 -13.5 81t-34.5 48q-19 16 -42 20t-36 4q-15 0 -33 -4t-41 -21q-18 -13 -32 -43t-14 -71z" />
<glyph unicode="'" horiz-adv-x="564" d="M119 1556h326l-60 -589h-206z" />
<glyph unicode="(" horiz-adv-x="930" d="M110 572q0 165 27.5 299t71.5 245q48 121 117.5 228.5t156.5 211.5h367v-29q-81 -73 -154.5 -165.5t-136.5 -216.5q-60 -119 -97.5 -264t-37.5 -309q0 -171 36.5 -310t98.5 -263q60 -118 135.5 -214.5t155.5 -167.5v-29h-367q-85 101 -154 208t-119 230 q-47 115 -73.5 255t-26.5 291z" />
<glyph unicode=")" horiz-adv-x="930" d="M79 -383q80 71 156 167t135 215q62 124 98.5 263t36.5 310q0 164 -37.5 309t-97.5 264q-63 124 -136.5 216.5t-154.5 165.5v29h367q87 -104 156.5 -211.5t117.5 -228.5q44 -111 71.5 -245t27.5 -299q0 -151 -26.5 -290.5t-73.5 -255.5q-50 -123 -119 -230t-154 -208h-367 v29z" />
<glyph unicode="*" d="M128 862l344 203l-342 205l100 154l305 -207l-6 339h199l-6 -339l308 206l103 -154l-346 -203l346 -205l-103 -152l-312 213l11 -348h-200l6 338l-305 -204z" />
<glyph unicode="+" horiz-adv-x="1676" d="M194 528v258h512v508h264v-508h512v-258h-512v-508h-264v508h-512z" />
<glyph unicode="," horiz-adv-x="640" d="M-5 -370l197 763h366l-350 -763h-213z" />
<glyph unicode="-" horiz-adv-x="883" d="M110 518v278h663v-278h-663z" />
<glyph unicode="." horiz-adv-x="640" d="M143 0v393h354v-393h-354z" />
<glyph unicode="/" horiz-adv-x="1182" d="M118 -324l590 1880h290l-593 -1880h-287z" />
<glyph unicode="0" d="M78 744q0 198 30.5 338t101.5 241q70 99 180 147.5t262 48.5q161 0 268.5 -50.5t176.5 -150.5q68 -98 98.5 -242t30.5 -331q0 -193 -31 -338t-99 -242t-177 -146.5t-267 -49.5q-157 0 -266 49.5t-178 148.5q-68 98 -99 241.5t-31 335.5zM453 743q0 -272 46 -385.5 t153 -113.5t153 113.5t46 387.5q0 276 -45.5 387.5t-153.5 111.5q-107 0 -153 -111.5t-46 -389.5z" />
<glyph unicode="1" d="M195 0v260h314v787h-314v243q69 0 137 9t109 29q48 24 74.5 64.5t30.5 100.5h326v-1233h307v-260h-984z" />
<glyph unicode="2" d="M151 0v243q139 110 249.5 208t194.5 186q109 115 158 202t49 179q0 104 -62 159.5t-173 55.5q-57 0 -107.5 -14t-102.5 -36q-51 -23 -87 -47l-54 -36h-29v325q63 30 197 61.5t258 31.5q265 0 401.5 -118t136.5 -332q0 -132 -62 -258.5t-206 -271.5q-90 -89 -175 -158.5 t-123 -98.5h631v-281h-1094z" />
<glyph unicode="3" d="M103 63v323h36q82 -52 192.5 -90t201.5 -38q54 0 117.5 9.5t106.5 41.5q34 25 54.5 61.5t20.5 103.5q0 66 -29 101.5t-77 51.5q-48 17 -115 19t-118 2h-64v262h59q68 0 125 6t97 24q40 19 62.5 53t22.5 92q0 45 -21 73.5t-52 44.5q-36 18 -84 24t-82 6q-55 0 -112 -13 t-111 -33q-42 -16 -88 -41.5t-68 -38.5h-31v319q77 33 207.5 63.5t266.5 30.5q133 0 230.5 -23t166.5 -67q76 -47 114 -119.5t38 -163.5q0 -127 -73.5 -222.5t-193.5 -123.5v-14q53 -8 103.5 -27t98.5 -62q45 -39 74.5 -100.5t29.5 -146.5q0 -109 -40.5 -199t-118.5 -153 q-79 -63 -185.5 -96.5t-259.5 -33.5q-174 0 -298.5 29t-202.5 65z" />
<glyph unicode="4" d="M45 347v278l643 864h373v-874h201v-268h-201v-351h-361v351h-655zM323 615h377v507z" />
<glyph unicode="5" d="M120 59v325h34l63 -36t92 -42q53 -21 107.5 -34.5t121.5 -13.5q58 0 125 14.5t108 52.5q30 30 47 67t17 99q0 52 -21.5 89.5t-56.5 60.5q-51 34 -123 43.5t-124 9.5q-82 0 -159.5 -13t-134.5 -28h-32v836h986v-281h-633v-248q30 2 71.5 3.5t64.5 1.5q107 0 198 -21.5 t161 -66.5q85 -55 132 -147.5t47 -225.5q0 -116 -39.5 -215t-118.5 -171q-78 -71 -185.5 -110t-264.5 -39q-166 1 -285.5 28.5t-197.5 61.5z" />
<glyph unicode="6" d="M98 664q0 196 42 348t137 269q91 111 238 173.5t348 62.5q73 0 146.5 -9.5t100.5 -15.5v-293h-27q-26 13 -86 29.5t-137 16.5q-175 0 -270 -92t-117 -264q73 47 148.5 75t170.5 28q80 0 150.5 -21.5t125.5 -62.5q77 -59 122.5 -155t45.5 -246q0 -235 -149 -386.5 t-409 -151.5q-130 0 -232 37.5t-173 110.5q-85 86 -130 222t-45 325zM469 606q0 -128 22.5 -206t56.5 -118q26 -32 59.5 -46t70.5 -14q30 0 65 15t59 45q29 36 44.5 78.5t15.5 128.5q0 72 -18 119t-51 75t-75 38.5t-89 10.5q-39 0 -80.5 -10t-77.5 -25q0 -10 -1 -33t-1 -58z " />
<glyph unicode="7" d="M117 1208v281h1095v-296l-634 -1193h-416l665 1208h-710z" />
<glyph unicode="8" d="M63 402q0 128 70.5 213t204.5 142v6q-131 64 -183 155t-52 203q0 82 36 154t108 129q68 54 172.5 86.5t234.5 32.5q138 0 240.5 -29.5t168.5 -77.5q68 -49 104 -118.5t36 -150.5q0 -106 -61.5 -191.5t-188.5 -143.5v-6q148 -60 218 -157.5t70 -233.5q0 -96 -39.5 -178.5 t-115.5 -142.5t-185.5 -94t-250.5 -34q-150 0 -263 34.5t-185 93.5q-71 59 -105 139t-34 169zM428 450q0 -104 66 -166t174 -62q29 0 66.5 9.5t66.5 29.5q32 23 51.5 54t19.5 84q0 73 -31 112t-133 88q-29 14 -83.5 35t-96.5 39q-39 -39 -69.5 -96.5t-30.5 -126.5zM472 1128 q0 -60 30.5 -96.5t94.5 -67.5q28 -14 66.5 -29t102.5 -39q39 51 57 98.5t18 108.5q0 76 -50 121.5t-136 45.5q-82 0 -132.5 -41t-50.5 -101z" />
<glyph unicode="9" d="M68 979q0 116 39.5 214.5t112.5 171.5q72 72 177 113t234 41q130 0 231 -36.5t173 -111.5q84 -85 127.5 -219t43.5 -324t-44 -348t-137 -271q-96 -115 -238.5 -176.5t-349.5 -61.5q-70 0 -146 9t-101 16v293h29q28 -14 79.5 -30t142.5 -16q73 0 141 19.5t117 61.5 q51 44 85 110t46 165q-80 -50 -148.5 -76.5t-170.5 -26.5q-77 0 -147.5 20.5t-128.5 63.5q-77 60 -122 154.5t-45 244.5zM442 998q0 -72 18.5 -118.5t50.5 -74.5q32 -27 73 -38t91 -11q42 0 86.5 11.5t71.5 23.5q0 11 1.5 31.5t1.5 61.5q0 121 -20.5 199.5t-57.5 122.5 q-26 32 -58.5 46t-70.5 14q-33 0 -64.5 -13.5t-60.5 -46.5q-26 -29 -44 -85t-18 -123z" />
<glyph unicode=":" horiz-adv-x="744" d="M195 0v393h354v-393h-354zM195 730v393h354v-393h-354z" />
<glyph unicode=";" horiz-adv-x="744" d="M47 -370l197 763h366l-350 -763h-213zM195 730v393h354v-393h-354z" />
<glyph unicode="&#x3c;" horiz-adv-x="1676" d="M181 547v220l1284 533v-276l-899 -368l899 -366v-276z" />
<glyph unicode="=" horiz-adv-x="1676" d="M224 280v258h1228v-258h-1228zM224 776v258h1228v-258h-1228z" />
<glyph unicode="&#x3e;" horiz-adv-x="1676" d="M211 14v276l899 367l-899 367v276l1284 -533v-220z" />
<glyph unicode="?" horiz-adv-x="1160" d="M111 1132v301q64 28 187 57t264 29q126 0 222.5 -29.5t164.5 -82.5q66 -53 100.5 -124.5t34.5 -156.5q0 -99 -29.5 -177.5t-83.5 -136.5q-53 -57 -127.5 -102t-166.5 -82v-228h-342v335q56 15 124.5 41t120.5 64q55 39 90 91t35 123q0 99 -63 144t-175 45 q-84 0 -178.5 -37t-148.5 -74h-29zM311 0v264h394v-264h-394z" />
<glyph unicode="@" horiz-adv-x="1884" d="M118 647q0 184 64 343t176 278q111 117 263 183.5t324 66.5q171 0 319 -62t255 -174q109 -112 170.5 -268.5t61.5 -350.5q0 -137 -39.5 -284.5t-96.5 -239.5h-488l-15 78q-26 -18 -51.5 -34t-56.5 -27q-35 -13 -65 -19t-82 -6q-76 0 -142 34t-114 98q-47 62 -74.5 158.5 t-27.5 209.5q0 116 34 211t91 164q54 63 127.5 100t153.5 37q64 0 114 -26t77 -53v61l221 1v-808h150q29 66 47.5 156t18.5 183q0 164 -44 287t-123 206q-80 84 -187.5 124.5t-232.5 40.5q-118 0 -223.5 -45t-194.5 -134q-85 -86 -136.5 -212t-51.5 -279q0 -163 48.5 -290 t133.5 -213q82 -85 191 -128.5t228 -43.5q84 0 182.5 15t181.5 40v-213q-91 -21 -175.5 -31t-189.5 -10q-177 0 -328.5 63.5t-260.5 178.5q-110 116 -171.5 278t-61.5 356zM736 634q0 -157 43.5 -233.5t142.5 -76.5q52 0 90.5 20.5t78.5 59.5v504q-41 21 -75.5 30.5 t-78.5 9.5q-97 0 -149 -86t-52 -228z" />
<glyph unicode="A" horiz-adv-x="1402" d="M-6 0l503 1489h408l503 -1489h-385l-93 304h-468l-93 -304h-375zM544 574h304l-152 491z" />
<glyph unicode="B" horiz-adv-x="1405" d="M154 0v1489h526q164 0 248.5 -12.5t158.5 -52.5q80 -43 119.5 -115t39.5 -166q0 -109 -54.5 -194t-150.5 -125v-8q138 -29 221 -118.5t83 -241.5q0 -111 -42 -195t-113 -139q-84 -66 -184.5 -94t-255.5 -28h-596zM526 273h20q146 0 202 2t114 27q51 22 74.5 64.5 t23.5 96.5q0 69 -28 108t-84 59q-34 13 -93.5 14.5t-159.5 1.5h-69v-373zM526 901h47q96 0 134.5 2t79.5 21q45 21 62 58t17 86q0 36 -18.5 74t-57.5 55q-37 16 -87.5 17.5t-150.5 1.5h-26v-315z" />
<glyph unicode="C" horiz-adv-x="1367" d="M67 743q0 354 197.5 564.5t532.5 210.5q89 0 160 -10t136 -28q51 -15 111 -41t97 -45v-355h-38q-27 24 -68 57.5t-93 65.5t-114.5 54.5t-130.5 22.5q-81 0 -148.5 -25.5t-128.5 -88.5q-56 -57 -91.5 -154t-35.5 -229q0 -139 37 -233.5t97 -152.5q58 -56 129.5 -81 t142.5 -25q74 0 141 24.5t113 54.5q50 31 88 63t66 57h34v-350q-41 -19 -95 -43.5t-111 -41.5q-70 -21 -131 -32t-168 -11q-335 0 -532 202.5t-197 569.5z" />
<glyph unicode="D" horiz-adv-x="1551" d="M154 0v1489h462q157 0 294 -20t257 -97q147 -94 232 -253.5t85 -375.5q0 -208 -91 -372.5t-230 -252.5q-116 -75 -252.5 -96.5t-290.5 -21.5h-466zM528 279h7q126 0 212.5 4.5t164.5 53.5q92 58 140 160t48 249t-50.5 251.5t-155.5 163.5q-76 42 -159.5 46t-199.5 4h-7 v-932z" />
<glyph unicode="E" horiz-adv-x="1260" d="M154 0v1489h1007v-284h-635v-261h585v-284h-585v-376h635v-284h-1007z" />
<glyph unicode="F" horiz-adv-x="1190" d="M154 0v1489h997v-284h-625v-281h575v-284h-575v-640h-372z" />
<glyph unicode="G" horiz-adv-x="1526" d="M67 746q0 350 208.5 561t570.5 211q187 0 304 -35.5t242 -96.5v-349h-34q-27 21 -77.5 59.5t-98.5 65.5q-56 32 -129.5 55t-155.5 23q-96 0 -175 -30t-141 -92q-59 -60 -93.5 -152t-34.5 -214q0 -261 131 -385t358 -124q20 0 47 1t47 3v292h-289v279h651v-733 q-98 -40 -254.5 -78t-308.5 -38q-351 0 -559.5 202.5t-208.5 574.5z" />
<glyph unicode="H" horiz-adv-x="1565" d="M154 0v1489h374v-545h509v545h374v-1489h-374v660h-509v-660h-374z" />
<glyph unicode="I" horiz-adv-x="990" d="M94 0v260h214v969h-214v260h802v-260h-214v-969h214v-260h-802z" />
<glyph unicode="J" horiz-adv-x="1025" d="M6 6v302h34q45 -18 94 -33.5t126 -15.5q99 0 152.5 28t75.5 78q23 49 25.5 113.5t2.5 143.5v597h-341v270h715v-1052q0 -97 -33 -182.5t-100 -145.5q-75 -68 -177 -100t-235 -32q-99 0 -186 7.5t-153 21.5z" />
<glyph unicode="K" horiz-adv-x="1426" d="M154 0v1489h374v-661l476 661h433l-531 -691l553 -798h-452l-406 605l-73 -102v-503h-374z" />
<glyph unicode="L" horiz-adv-x="1172" d="M154 0v1489h374v-1205h620v-284h-994z" />
<glyph unicode="M" horiz-adv-x="1829" d="M154 0v1489h431l330 -735l329 735h431v-1489h-372v987l-271 -637h-255l-271 637v-987h-352z" />
<glyph unicode="N" horiz-adv-x="1578" d="M154 0v1489h459l475 -853v853h342v-1489h-360l-574 1038v-1038h-342z" />
<glyph unicode="O" horiz-adv-x="1577" d="M67 744q0 359 192 567.5t529 208.5q336 0 529 -207.5t193 -568.5t-193 -568t-529 -207q-337 0 -529 209.5t-192 565.5zM453 744q0 -137 27 -227.5t74 -151.5q48 -62 109 -88.5t126 -26.5q66 0 128 28.5t107 88.5q48 65 74 151.5t26 226.5q0 133 -27.5 226.5t-73.5 153.5 q-48 61 -108.5 87.5t-125.5 26.5q-69 0 -125 -24.5t-108 -87.5q-46 -58 -74.5 -154t-28.5 -229z" />
<glyph unicode="P" horiz-adv-x="1346" d="M154 0v1489h578q129 0 222.5 -23.5t169.5 -74.5q84 -56 130 -149.5t46 -222.5q0 -104 -33 -198t-95 -157q-38 -39 -83.5 -72t-100.5 -56t-119.5 -36t-144.5 -13h-196v-487h-374zM528 765h26q53 0 100 1t82 7q30 5 63.5 19.5t51.5 32.5q38 37 51.5 77t13.5 108 q0 63 -30 108.5t-72 62.5q-53 23 -101.5 26.5t-131.5 3.5h-53v-446z" />
<glyph unicode="Q" horiz-adv-x="1577" d="M67 744q0 359 192 567.5t529 208.5q336 0 529 -207.5t193 -568.5q0 -263 -109.5 -451.5t-309.5 -267.5q2 -109 48.5 -150.5t163.5 -41.5q45 0 95.5 13.5t72.5 25.5h37v-266q-60 -15 -120.5 -22t-189.5 -7q-118 0 -200.5 29.5t-137.5 83.5q-55 53 -82.5 126t-31.5 157 q-316 14 -497.5 219t-181.5 552zM453 744q0 -137 27 -227.5t74 -151.5q48 -62 109 -88.5t126 -26.5q66 0 128 28.5t107 88.5q48 65 74 151.5t26 226.5q0 133 -27.5 226.5t-73.5 153.5q-48 61 -108.5 87.5t-125.5 26.5q-69 0 -125 -24.5t-108 -87.5q-46 -58 -74.5 -154 t-28.5 -229z" />
<glyph unicode="R" horiz-adv-x="1487" d="M154 0v1489h599q124 0 216 -15.5t170 -64.5q80 -51 127 -129.5t47 -199.5q0 -171 -77 -277.5t-206 -169.5l501 -633h-456l-415 546h-134v-546h-372zM526 814h107q78 0 132.5 9.5t92.5 40.5q36 28 53.5 67t17.5 102q0 56 -21.5 96.5t-71.5 62.5q-35 15 -78 19t-107 4h-125 v-401z" />
<glyph unicode="S" horiz-adv-x="1297" d="M73 88v354h34q112 -95 247 -146t262 -51q32 0 84.5 7t84.5 22q39 17 66 47.5t27 80.5q0 56 -44 91t-105 51q-76 20 -162.5 38t-161.5 44q-173 61 -248 164t-75 258q0 209 177 338.5t442 129.5q133 0 264.5 -27t235.5 -73v-340h-33q-83 71 -202.5 120t-245.5 49 q-49 0 -88 -7t-82 -27q-35 -16 -60.5 -47.5t-25.5 -70.5q0 -57 40.5 -90.5t156.5 -60.5q75 -17 144.5 -33t148.5 -44q155 -56 230.5 -150.5t75.5 -249.5q0 -222 -174.5 -357t-471.5 -135q-171 0 -300.5 33t-240.5 82z" />
<glyph unicode="T" horiz-adv-x="1254" d="M0 1205v284h1254v-284h-440v-1205h-374v1205h-440z" />
<glyph unicode="U" horiz-adv-x="1513" d="M133 538v951h374v-929q0 -155 58.5 -231t190.5 -76q129 0 189.5 73t60.5 234v929h374v-950q0 -275 -157.5 -422.5t-466.5 -147.5q-300 0 -461.5 145t-161.5 424z" />
<glyph unicode="V" horiz-adv-x="1382" d="M-16 1489h388l324 -1009l324 1009h378l-512 -1489h-390z" />
<glyph unicode="W" horiz-adv-x="2105" d="M30 1489h388l205 -999l250 999h371l237 -999l216 999h378l-377 -1489h-410l-239 921l-232 -921h-410z" />
<glyph unicode="X" horiz-adv-x="1402" d="M-12 0l483 750l-464 739h433l268 -449l275 449h415l-467 -724l483 -765h-434l-286 475l-292 -475h-414z" />
<glyph unicode="Y" horiz-adv-x="1373" d="M-19 1489h426l292 -532l281 532h412l-514 -867v-622h-374v603z" />
<glyph unicode="Z" horiz-adv-x="1275" d="M54 0v279l685 926h-649v284h1105v-284l-684 -921h724v-284h-1181z" />
<glyph unicode="[" horiz-adv-x="930" d="M166 -392v1948h628v-236h-325v-1476h325v-236h-628z" />
<glyph unicode="\" horiz-adv-x="1182" d="M194 1556h290l590 -1880h-287z" />
<glyph unicode="]" horiz-adv-x="930" d="M135 -156h325v1476h-325v236h628v-1948h-628v236z" />
<glyph unicode="^" horiz-adv-x="1676" d="M173 672l529 817h240l561 -815h-312l-369 537l-338 -539h-311z" />
<glyph unicode="_" d="M-16 -144h1336v-201h-1336v201z" />
<glyph unicode="`" horiz-adv-x="1118" d="M270 1676h331l207 -393h-238z" />
<glyph unicode="a" horiz-adv-x="1226" d="M50 322q0 125 50 202t144 122q95 46 227 64t284 28v6q0 93 -68.5 128.5t-205.5 35.5q-62 0 -145 -22.5t-162 -57.5h-30v271q52 15 168 35.5t234 20.5q290 0 422.5 -96.5t132.5 -294.5v-764h-348v119q-36 -30 -64.5 -54t-76.5 -48q-47 -23 -91.5 -35t-124.5 -12 q-149 0 -247.5 100t-98.5 252zM404 351q0 -79 42.5 -108.5t125.5 -29.5q46 0 94 21t87 59v234q-89 -9 -144 -15.5t-108 -25.5q-46 -16 -71.5 -48.5t-25.5 -86.5z" />
<glyph unicode="b" horiz-adv-x="1294" d="M134 0v1556h350v-550q77 66 157 107t185 41q196 0 302.5 -153t106.5 -424q0 -268 -136 -433.5t-337 -165.5q-84 0 -146 19t-132 59l-15 -56h-335zM484 258q35 -14 70.5 -19t70.5 -5q127 0 189.5 84t62.5 252t-51 240t-157 72q-47 0 -93.5 -15t-91.5 -45v-564z" />
<glyph unicode="c" horiz-adv-x="1080" d="M52 557q0 161 51 274t138 186q84 70 197.5 103.5t236.5 33.5q93 0 186 -21.5t187 -68.5v-300h-45q-21 20 -51.5 44t-66.5 44q-38 21 -86 35.5t-107 14.5q-134 0 -207.5 -93.5t-73.5 -251.5q0 -169 78.5 -252t208.5 -83q66 0 116 15t86 36q35 21 60 43.5t43 40.5h45v-300 q-30 -13 -69.5 -30t-80.5 -28q-51 -14 -95.5 -21.5t-117.5 -7.5q-139 0 -254.5 35t-200.5 108q-84 73 -131 183.5t-47 260.5z" />
<glyph unicode="d" horiz-adv-x="1289" d="M54 553q0 147 38 255t105 188q61 73 148 115.5t184 42.5q88 0 144.5 -18.5t131.5 -57.5v478h350v-1556h-350v117q-34 -28 -77.5 -60t-76.5 -48q-42 -20 -83 -30t-98 -10q-192 0 -304 159t-112 425zM412 557q0 -166 50.5 -240t163.5 -74q46 0 93 18t86 49v551 q-26 13 -68 21.5t-72 8.5q-126 0 -189.5 -88t-63.5 -246z" />
<glyph unicode="e" horiz-adv-x="1216" d="M52 555q0 275 158 439t442 164q258 0 388 -139t130 -398v-126h-767q5 -78 33 -130.5t74 -83.5q45 -31 105 -44.5t131 -13.5q61 0 120 13.5t108 35.5q43 19 79.5 41t59.5 39h37v-289q-43 -17 -78.5 -31.5t-97.5 -29.5q-57 -15 -117.5 -23.5t-147.5 -8.5q-318 0 -487.5 152 t-169.5 433zM402 706h423q-3 111 -51.5 169t-148.5 58q-102 0 -159.5 -61t-63.5 -166z" />
<glyph unicode="f" horiz-adv-x="783" d="M21 879v244h140v31q0 206 108 309t327 103q76 0 142 -5.5t114 -14.5v-254h-27q-20 6 -62.5 15.5t-80.5 9.5q-106 0 -144.5 -39t-38.5 -146v-9h278v-244h-266v-879h-350v879h-140z" />
<glyph unicode="g" horiz-adv-x="1289" d="M54 590q0 132 36.5 237t101.5 179q62 71 150 109.5t183 38.5q86 0 154 -22t124 -59l13 50h339v-994q0 -156 -45 -265t-123 -170q-78 -62 -187 -89.5t-242 -27.5q-112 0 -212.5 14.5t-174.5 33.5v281h41q26 -10 61.5 -22t71.5 -22q43 -11 84 -18t84 -7q89 0 148.5 18.5 t89.5 52.5q30 35 42 82.5t12 119.5v21q-59 -52 -136.5 -83.5t-159.5 -31.5q-218 0 -336.5 142t-118.5 432zM412 582q0 -73 9.5 -123.5t35.5 -89.5q25 -38 65.5 -57.5t103.5 -19.5q47 0 92.5 16t86.5 46v509q-26 12 -64 20t-76 8q-126 0 -189.5 -81.5t-63.5 -227.5z" />
<glyph unicode="h" horiz-adv-x="1311" d="M134 0v1556h350v-557q86 73 167.5 114t180.5 41q172 0 263 -108.5t91 -314.5v-731h-352v557q0 68 -5.5 135.5t-20.5 99.5q-18 38 -52 54.5t-91 16.5q-43 0 -87 -16t-94 -51v-796h-350z" />
<glyph unicode="i" horiz-adv-x="618" d="M124 1283v273h370v-273h-370zM134 0v1123h350v-1123h-350z" />
<glyph unicode="j" horiz-adv-x="743" d="M-84 -139h27q34 -11 75.5 -17.5t66.5 -6.5q101 0 137.5 62t36.5 204v776h-202v244h552v-1143q0 -190 -113 -296.5t-292 -106.5q-96 0 -174 8.5t-114 17.5v258zM236 1283v273h373v-273h-373z" />
<glyph unicode="k" horiz-adv-x="1234" d="M134 0v1556h350v-872l332 439h413l-393 -484l422 -639h-416l-304 489l-54 -73v-416h-350z" />
<glyph unicode="l" horiz-adv-x="618" d="M134 0v1556h350v-1556h-350z" />
<glyph unicode="m" horiz-adv-x="1953" d="M134 0v1123h350v-124q86 73 162 114t171 41q103 0 181 -49t119 -146q101 94 190.5 144.5t181.5 50.5q78 0 140 -25t105 -75q47 -54 70.5 -128.5t23.5 -194.5v-731h-352v561q0 83 -3 140t-18 93t-46.5 52.5t-88.5 16.5q-40 0 -79 -17.5t-85 -49.5v-796h-352v561 q0 82 -3.5 139.5t-18.5 93.5t-46.5 52.5t-87.5 16.5q-43 0 -84 -20t-80 -47v-796h-350z" />
<glyph unicode="n" horiz-adv-x="1311" d="M134 0v1123h350v-124q86 73 167.5 114t180.5 41q172 0 263 -108.5t91 -314.5v-731h-352v557q0 68 -5.5 135.5t-20.5 99.5q-18 38 -52 54.5t-91 16.5q-43 0 -87 -16t-94 -51v-796h-350z" />
<glyph unicode="o" horiz-adv-x="1264" d="M52 561q0 280 152.5 438.5t427.5 158.5q276 0 428 -159.5t152 -437.5q0 -277 -151.5 -436.5t-428.5 -159.5q-275 0 -427.5 159.5t-152.5 436.5zM411 559q0 -103 17 -166.5t44 -101.5q28 -39 70 -57t93 -18q42 0 85.5 18t69.5 54q31 43 47 103.5t16 167.5 q0 100 -16.5 166.5t-45.5 106.5q-31 42 -70 58.5t-89 16.5q-47 0 -85 -14.5t-70 -55.5q-30 -39 -48 -107t-18 -171z" />
<glyph unicode="p" horiz-adv-x="1289" d="M134 -412v1535h350v-117q77 66 157 107t185 41q195 0 302 -155t107 -422q0 -269 -136.5 -434t-336.5 -165q-84 0 -146 19t-132 59v-468h-350zM484 257q28 -12 61.5 -17t79.5 -5q128 0 190 83.5t62 251.5q0 164 -50.5 238t-157.5 74q-47 0 -93.5 -15t-91.5 -45v-565z" />
<glyph unicode="q" horiz-adv-x="1289" d="M54 553q0 147 38 255t105 188q61 73 148 115.5t184 42.5q83 0 144.5 -21t129.5 -60l13 50h339v-1535h-350v522q-37 -30 -77 -58.5t-76 -44.5q-45 -21 -82 -29.5t-100 -8.5q-191 0 -303.5 159t-112.5 425zM412 557q0 -166 50.5 -240t163.5 -74q46 0 93 18t86 49v551 q-26 13 -68 21.5t-72 8.5q-126 0 -189.5 -88t-63.5 -246z" />
<glyph unicode="r" horiz-adv-x="888" d="M134 0v1123h350v-161q24 22 66.5 55.5t77.5 53.5q38 23 88.5 39.5t95.5 16.5q17 0 38 -1t38 -3v-331h-29q-20 7 -58 10.5t-84 3.5q-55 0 -115.5 -16t-117.5 -38v-752h-350z" />
<glyph unicode="s" horiz-adv-x="1054" d="M59 59v296h29q25 -19 57 -42t89 -48q49 -23 110.5 -39.5t133.5 -16.5q74 0 130.5 23t56.5 73q0 39 -26 59t-101 38q-40 10 -101 21.5t-108 26.5q-132 41 -198.5 121.5t-66.5 211.5q0 75 34.5 141.5t101.5 118.5q67 51 165.5 81t222.5 30q118 0 217 -23.5t167 -56.5v-284 h-28q-18 14 -57 37.5t-76 40.5q-44 20 -98.5 33t-111.5 13q-76 0 -128.5 -26t-52.5 -69q0 -38 26 -60t113 -43q45 -11 103.5 -21.5t112.5 -28.5q121 -39 183.5 -114.5t62.5 -200.5q0 -79 -37 -150.5t-105 -120.5q-72 -53 -169.5 -82t-233.5 -29q-124 0 -234.5 27t-182.5 63z " />
<glyph unicode="t" horiz-adv-x="851" d="M21 879v244h134v321h350v-321h337v-244h-337v-398q0 -59 1 -103t16 -79q14 -35 49.5 -55.5t103.5 -20.5q28 0 73.5 12t63.5 22h30v-247q-57 -15 -121 -23.5t-157 -8.5q-214 0 -311.5 88t-97.5 288v525h-134z" />
<glyph unicode="u" horiz-adv-x="1311" d="M125 392v731h352v-557q0 -87 4.5 -142t21.5 -93q16 -35 49.5 -53t93.5 -18q37 0 87.5 18t93.5 49v796h350v-1123h-350v124q-91 -76 -167 -115.5t-181 -39.5q-167 0 -260.5 105.5t-93.5 317.5z" />
<glyph unicode="v" horiz-adv-x="1185" d="M0 1123h368l230 -743l227 743h360l-403 -1123h-382z" />
<glyph unicode="w" horiz-adv-x="1822" d="M15 1123h368l172 -743l213 743h309l201 -743l169 743h360l-328 -1123h-372l-197 726l-198 -726h-372z" />
<glyph unicode="x" horiz-adv-x="1238" d="M-4 0l413 561l-406 562h410l210 -317l211 317h403l-407 -553l412 -570h-410l-214 323l-220 -323h-402z" />
<glyph unicode="y" horiz-adv-x="1179" d="M-3 1123h368l236 -704l221 704h360l-567 -1535h-376l170 439z" />
<glyph unicode="z" horiz-adv-x="1077" d="M48 0v231l536 629h-512v263h947v-227l-537 -628h548v-268h-982z" />
<glyph unicode="{" horiz-adv-x="1276" d="M56 461v242h65q184 0 259 74t75 243v149q0 190 113 288.5t307 98.5h264v-220h-109q-60 0 -108.5 -9t-81.5 -34q-34 -26 -51 -75.5t-17 -127.5v-113q0 -144 -82.5 -238.5t-219.5 -144.5v-24q137 -50 219.5 -144.5t82.5 -238.5v-113q0 -78 17 -127.5t51 -75.5 q32 -26 81 -34.5t109 -8.5h109v-220h-264q-194 0 -307 98.5t-113 288.5v149q0 169 -75 243t-259 74h-65z" />
<glyph unicode="|" d="M511 -392v1948h281v-1948h-281z" />
<glyph unicode="}" horiz-adv-x="1276" d="M137 -172h109q60 0 108.5 9t81.5 34q34 26 51 75.5t17 127.5v113q0 144 82.5 238.5t219.5 144.5v24q-137 50 -219.5 144.5t-82.5 238.5v113q0 78 -17 127.5t-51 75.5q-33 25 -81.5 34t-108.5 9h-109v220h264q194 0 307 -98.5t113 -288.5v-149q0 -169 75 -243t259 -74h65 v-242h-65q-184 0 -259 -74t-75 -243v-149q0 -190 -113 -288.5t-307 -98.5h-264v220z" />
<glyph unicode="~" horiz-adv-x="1676" d="M135 333q0 324 107 489t310 165q66 0 118 -16.5t96 -44.5q42 -27 78.5 -65t60.5 -67q27 -34 54.5 -69.5t53.5 -62.5q26 -28 53 -45.5t56 -17.5q54 0 86 28t48 79q17 55 22 129t7 154h260q-1 -315 -106 -484.5t-311 -169.5q-68 0 -119.5 16t-92.5 43q-44 30 -74 62t-65 72 q-29 34 -55 68.5t-53 63.5q-24 26 -53.5 44.5t-57.5 18.5q-56 0 -86 -27.5t-48 -79.5q-17 -55 -21.5 -129t-7.5 -154h-260z" />
<glyph unicode="&#xa1;" horiz-adv-x="702" d="M152 0l41 1060h316l41 -1060h-398zM154 1225v264h394v-264h-394z" />
<glyph unicode="&#xa2;" d="M150 567q0 147 45 257t123 183q76 71 178.5 108t215.5 45v315h164v-319q103 -12 177.5 -40.5t102.5 -41.5v-295h-45q-32 30 -96.5 72t-142.5 58v-676q81 13 142.5 51.5t96.5 77.5h45v-295q-47 -21 -122 -46.5t-158 -33.5v-348h-164v345q-131 9 -231.5 49t-173.5 111 q-75 73 -116 178.5t-41 244.5zM500 567q0 -140 58.5 -224t157.5 -107v672q-102 -24 -159 -116.5t-57 -224.5z" />
<glyph unicode="&#xa3;" d="M120 0v277q110 32 154 108.5t44 217.5h-166v213h166v265q0 195 138.5 316t354.5 121q126 0 210 -17t128 -31v-306h-35q-47 37 -111.5 60.5t-130.5 23.5q-90 0 -146.5 -59.5t-56.5 -166.5v-206h373v-213h-373q0 -39 -12 -92.5t-29 -88.5q-20 -40 -49.5 -74.5t-68.5 -55.5 v-11h697v-281h-1087z" />
<glyph unicode="&#xa4;" d="M114 283l202 200q-21 39 -32 82.5t-11 93.5q0 53 11.5 97.5t36.5 87.5l-200 202l150 151l201 -201q43 23 82.5 33t98.5 10q50 1 93.5 -10.5t81.5 -31.5l202 200l156 -156l-201 -200q21 -37 34 -83.5t13 -96.5q-1 -54 -12.5 -98.5t-32.5 -80.5l199 -199l-154 -155 l-200 199q-41 -22 -82.5 -34t-97.5 -12q-58 2 -100 13.5t-80 32.5l-201 -201zM487 662q0 -65 48 -113.5t114 -48.5q68 1 115 48t47 114q0 68 -47 115t-115 47q-67 1 -114.5 -46.5t-47.5 -115.5z" />
<glyph unicode="&#xa5;" d="M21 1489h406l232 -487l232 487h392l-455 -807v-57h315v-213h-313v-412h-358v412h-313v213h315v38z" />
<glyph unicode="&#xa6;" d="M511 -392v798h281v-798h-281zM511 758v798h281v-798h-281z" />
<glyph unicode="&#xa7;" d="M106 526q0 99 52.5 180.5t151.5 143.5v7q-96 55 -136 127t-40 164q0 74 39.5 141t114.5 120q74 51 183.5 81t243.5 30q103 0 216 -15.5t191 -41.5v-286h-22q-46 28 -139 58.5t-184 30.5q-105 0 -170.5 -34.5t-65.5 -88.5q0 -39 21.5 -63.5t62.5 -43.5q42 -19 101 -38 t140 -46q166 -57 252 -139t86 -211q0 -100 -54 -182.5t-150 -141.5v-7q94 -53 133.5 -123t39.5 -158q0 -81 -39.5 -152t-114.5 -121q-81 -54 -180.5 -81.5t-246.5 -27.5q-96 0 -222 16.5t-195 40.5v286h22q46 -28 140.5 -58.5t192.5 -30.5q126 0 181 33t55 90q0 39 -21 64 t-61 44q-44 20 -106 39t-134 44q-167 58 -252.5 139.5t-85.5 210.5zM462 581q0 -57 37.5 -92.5t102.5 -61.5q26 -10 68.5 -25t83.5 -27q28 21 61 67.5t33 104.5q0 56 -36.5 91.5t-103.5 62.5q-23 9 -62 22.5t-89 28.5q-35 -28 -65 -73t-30 -98z" />
<glyph unicode="&#xa8;" horiz-adv-x="1118" d="M172 1283v273h287v-273h-287zM653 1283v273h287v-273h-287z" />
<glyph unicode="&#xa9;" horiz-adv-x="1902" d="M86 655q0 358 253.5 611.5t611.5 253.5t611.5 -253.5t253.5 -611.5t-253.5 -611.5t-611.5 -253.5t-611.5 253.5t-253.5 611.5zM277 655q0 -279 197.5 -479t476.5 -200t476.5 200t197.5 479t-197.5 479t-476.5 200t-476.5 -200t-197.5 -479zM534 660q0 111 35.5 195 t98.5 144q61 58 145.5 88.5t178.5 30.5q75 0 146 -20.5t131 -50.5v-204h-20q-20 15 -42.5 30.5t-58.5 33.5q-31 15 -71 26t-81 11q-106 0 -163.5 -72.5t-57.5 -211.5q0 -136 58.5 -208.5t162.5 -72.5q46 0 87 11.5t70 26.5q34 18 57 34t39 29h20v-203q-27 -12 -55 -24.5 t-68 -23.5q-41 -12 -73 -18t-81 -6q-93 0 -177 28t-146 84q-63 58 -99 142t-36 201z" />
<glyph unicode="&#xaa;" horiz-adv-x="1040" d="M72 854q0 103 39.5 162.5t115.5 96.5q73 35 176 50.5t233 23.5v4q0 75 -55 103.5t-164 28.5q-67 0 -141 -25.5t-105 -38.5h-24v216q42 12 135 28.5t187 16.5q223 0 333.5 -74t110.5 -239v-611h-278v95q-30 -25 -52 -43.5t-61 -37.5q-38 -19 -73.5 -28.5t-99.5 -9.5 q-116 0 -196.5 79t-80.5 203zM355 877q0 -62 32 -86t103 -24q38 0 77 17.5t68 46.5v187q-52 -5 -111 -13.5t-91 -19.5q-37 -13 -57.5 -39t-20.5 -69z" />
<glyph unicode="&#xab;" horiz-adv-x="1440" d="M128 594v129l560 445v-296l-281 -214l281 -214v-296zM698 594v129l560 445v-296l-281 -214l281 -214v-296z" />
<glyph unicode="&#xac;" horiz-adv-x="1676" d="M194 558v258h1278v-766h-274v508h-1004z" />
<glyph unicode="&#xad;" horiz-adv-x="883" d="M110 518v278h663v-278h-663z" />
<glyph unicode="&#xae;" horiz-adv-x="1902" d="M86 655q0 358 253.5 611.5t611.5 253.5t611.5 -253.5t253.5 -611.5t-253.5 -611.5t-611.5 -253.5t-611.5 253.5t-253.5 611.5zM277 655q0 -279 197.5 -479t476.5 -200t476.5 200t197.5 479t-197.5 479t-476.5 200t-476.5 -200t-197.5 -479zM621 245v861h314q87 0 140 -7 t105 -36q58 -34 84 -80t26 -117q0 -96 -51.5 -156t-132.5 -94l313 -371h-261l-251 316h-82v-316h-204zM825 714h49q46 0 85 7.5t61 25.5q22 16 32.5 41t10.5 62q0 27 -11 49.5t-37 36.5q-23 13 -52 17t-74 4h-64v-243z" />
<glyph unicode="&#xaf;" d="M-16 1632v201h1336v-201h-1336z" />
<glyph unicode="&#xb0;" horiz-adv-x="1064" d="M126 1117q0 170 118 286.5t288 116.5q171 0 288.5 -116.5t117.5 -286.5t-118 -286.5t-288 -116.5t-288 116.5t-118 286.5zM345 1117q0 -82 54.5 -136.5t132.5 -54.5q80 0 133.5 55.5t53.5 135.5q0 79 -53.5 135t-133.5 56q-79 0 -133 -55.5t-54 -135.5z" />
<glyph unicode="&#xb1;" horiz-adv-x="1676" d="M194 0v258h513v400h-513v258h512v508h264v-508h512v-258h-513v-400h513v-258h-1288z" />
<glyph unicode="&#xb2;" horiz-adv-x="1104" d="M177 566v189q70 43 141 89.5t124 88.5q104 83 134 134.5t30 111.5q0 58 -40.5 90t-116.5 32q-70 0 -138 -29.5t-105 -50.5h-23v237q70 24 156.5 42.5t188.5 18.5q184 0 281 -74t97 -212q0 -87 -38 -161t-148 -173q-34 -30 -74 -59.5t-92 -67.5h414v-206h-791z" />
<glyph unicode="&#xb3;" horiz-adv-x="1104" d="M171 600v216h22q37 -21 116 -45.5t154 -24.5q103 0 148.5 24t45.5 78q0 48 -32 70t-125 22h-150v195h135q82 0 115 23.5t33 69.5t-41 66.5t-128 20.5q-64 0 -140 -24t-116 -46h-22v213q64 23 149.5 42t203.5 19q184 0 282.5 -61.5t98.5 -176.5q0 -90 -48 -145.5 t-122 -80.5v-8q80 -16 136.5 -70.5t56.5 -148.5q0 -134 -102.5 -210t-319.5 -76q-128 0 -211 17.5t-139 40.5z" />
<glyph unicode="&#xb4;" horiz-adv-x="1118" d="M341 1283l207 393h331l-300 -393h-238z" />
<glyph unicode="&#xb5;" horiz-adv-x="1333" d="M134 -412v1535h350v-811q43 -33 90.5 -48.5t91.5 -15.5q40 0 89 14.5t94 49.5v811h350v-1123h-309l-16 72h-7q-48 -41 -90 -64t-108 -23q-57 0 -104.5 24t-80.5 55v-476h-350z" />
<glyph unicode="&#xb6;" d="M66 1049q0 100 34 177.5t107 138.5q70 58 180.5 91t253.5 33h532v-1852h-200v1672h-145v-1672h-210v956q-273 6 -412.5 125.5t-139.5 330.5z" />
<glyph unicode="&#xb7;" horiz-adv-x="744" d="M195 730v393h354v-393h-354z" />
<glyph unicode="&#xb8;" horiz-adv-x="1118" d="M287 -199h19q24 -11 68 -23t84 -12q71 0 116.5 39t45.5 121q0 31 -1 55.5t-1 38.5h212q1 -18 3 -49.5t2 -56.5q0 -162 -95.5 -249.5t-249.5 -87.5q-36 0 -102.5 7t-100.5 17v200z" />
<glyph unicode="&#xb9;" horiz-adv-x="1104" d="M228 1180v178q113 0 179.5 30t74.5 105h234v-739h201v-188h-681v188h211v426h-219z" />
<glyph unicode="&#xba;" horiz-adv-x="1104" d="M99 1043q0 222 122 349.5t342 127.5q222 0 343 -127t121 -350q0 -221 -121.5 -349t-342.5 -128q-224 0 -344 130t-120 347zM386 1041q0 -140 44 -207t135 -67q35 0 68.5 13t55.5 44q29 39 40 92t11 125q0 146 -45 212.5t-132 66.5q-37 0 -67.5 -11.5t-56.5 -44.5 q-24 -31 -38.5 -85.5t-14.5 -137.5z" />
<glyph unicode="&#xbb;" horiz-adv-x="1440" d="M182 148v296l281 214l-281 214v296l560 -445v-129zM752 148v296l281 214l-281 214v296l560 -445v-129z" />
<glyph unicode="&#xbc;" horiz-adv-x="2310" d="M163 1166v182q115 0 183 35.5t76 109.5h237v-934h-272v607h-224zM584 0l785 1498h264l-785 -1498h-264zM1292 197v261l450 486h273v-561h163v-186h-163v-197h-258v197h-465zM1441 383h320v335z" />
<glyph unicode="&#xbd;" horiz-adv-x="2310" d="M143 1166v182q115 0 183 35.5t76 109.5h237v-934h-272v607h-224zM554 0l785 1498h264l-785 -1498h-264zM1426 0v189q70 43 141.5 90t123.5 88q104 83 134 134.5t30 111.5q0 58 -40.5 90t-116.5 32q-70 0 -138 -29.5t-105 -50.5h-23v237q70 24 156.5 42.5t188.5 18.5 q184 0 281 -74t97 -212q0 -87 -38 -161t-148 -173q-34 -30 -74 -59.5t-92 -67.5h414v-206h-791z" />
<glyph unicode="&#xbe;" horiz-adv-x="2310" d="M141 600v216h22q37 -21 116 -45.5t154 -24.5q103 0 148.5 24t45.5 78q0 48 -32 70t-125 22h-150v195h135q82 0 115 23.5t33 69.5t-41 66.5t-128 20.5q-64 0 -140 -24t-116 -46h-22v213q64 23 149.5 42t203.5 19q184 0 282.5 -61.5t98.5 -176.5q0 -90 -48 -145.5 t-122 -80.5v-8q80 -16 136.5 -70.5t56.5 -148.5q0 -134 -102.5 -210t-319.5 -76q-128 0 -211 17.5t-139 40.5zM694 0l785 1498h264l-785 -1498h-264zM1372 197v261l450 486h273v-561h163v-186h-163v-197h-258v197h-465zM1521 383h320v335z" />
<glyph unicode="&#xbf;" horiz-adv-x="1160" d="M76 363q0 99 29.5 177.5t83.5 136.5q53 57 127.5 102t166.5 82v228h342v-335q-56 -15 -124 -41.5t-121 -63.5q-55 -39 -90 -91t-35 -123q0 -99 63 -144t175 -45q84 0 178.5 37t148.5 74h29v-301q-64 -28 -187 -57t-264 -29q-126 0 -222.5 29.5t-164.5 82.5 q-66 52 -100.5 124t-34.5 157zM455 1225v264h394v-264h-394z" />
<glyph unicode="&#xc0;" horiz-adv-x="1402" d="M-6 0l503 1489h408l503 -1489h-385l-93 304h-468l-93 -304h-375zM379 2049h331l207 -393h-238zM544 574h304l-152 491z" />
<glyph unicode="&#xc1;" horiz-adv-x="1402" d="M-6 0l503 1489h408l503 -1489h-385l-93 304h-468l-93 -304h-375zM473 1656l207 393h331l-300 -393h-238zM544 574h304l-152 491z" />
<glyph unicode="&#xc2;" horiz-adv-x="1402" d="M-6 0l503 1489h408l503 -1489h-385l-93 304h-468l-93 -304h-375zM276 1646l301 393h241l301 -393h-259l-165 213l-164 -213h-255zM544 574h304l-152 491z" />
<glyph unicode="&#xc3;" horiz-adv-x="1402" d="M-6 0l503 1489h408l503 -1489h-385l-93 304h-468l-93 -304h-375zM260 1648q6 146 82 233.5t203 87.5q48 0 89 -17t79 -39q30 -17 66 -36t59 -19q48 0 68.5 32t22.5 86h210q-10 -167 -83 -244.5t-203 -77.5q-48 0 -91 19.5t-74 38.5q-30 19 -66.5 38.5t-61.5 19.5 q-50 0 -68 -31.5t-22 -90.5h-210zM544 574h304l-152 491z" />
<glyph unicode="&#xc4;" horiz-adv-x="1402" d="M-6 0l503 1489h408l503 -1489h-385l-93 304h-468l-93 -304h-375zM308 1656v273h287v-273h-287zM544 574h304l-152 491zM789 1656v273h287v-273h-287z" />
<glyph unicode="&#xc5;" horiz-adv-x="1402" d="M-6 0l479 1412q-44 41 -71 96t-27 118q0 127 97.5 218t229.5 91t229.5 -91t97.5 -218q0 -61 -27 -118t-72 -98l478 -1410h-385l-93 304h-468l-93 -304h-375zM544 574h304l-152 491zM566 1635q0 -63 38 -104.5t98 -41.5t98 42t38 104q0 63 -38.5 104t-97.5 41t-97.5 -41 t-38.5 -104z" />
<glyph unicode="&#xc6;" horiz-adv-x="2025" d="M-18 0l550 1489h1393v-284h-635v-261h585v-284h-585v-376h635v-284h-1007v404h-412l-139 -404h-385zM606 684h312v535h-122z" />
<glyph unicode="&#xc7;" horiz-adv-x="1367" d="M67 743q0 359 197.5 567t532.5 208q89 0 160 -10t136 -28q51 -14 111 -40.5t97 -45.5v-355h-38q-27 24 -68 57.5t-93 65.5t-114.5 54.5t-130.5 22.5q-81 0 -148.5 -25.5t-128.5 -88.5q-56 -57 -91.5 -154t-35.5 -229q0 -139 37 -233.5t97 -152.5q58 -56 129.5 -81 t142.5 -25q74 0 141 24.5t113 54.5q50 31 88 63t66 57h34v-350q-56 -26 -123.5 -55t-146.5 -46q0 -16 1.5 -41t1.5 -43q0 -162 -95.5 -249.5t-249.5 -87.5q-36 0 -102.5 7t-100.5 17v200h19q24 -11 68 -23t84 -12q76 0 118.5 40t42.5 124v43h-22q-337 0 -533 201.5 t-196 568.5z" />
<glyph unicode="&#xc8;" horiz-adv-x="1260" d="M154 0v1489h1007v-284h-635v-261h585v-284h-585v-376h635v-284h-1007zM353 2049h331l207 -393h-238z" />
<glyph unicode="&#xc9;" horiz-adv-x="1260" d="M154 0v1489h1007v-284h-635v-261h585v-284h-585v-376h635v-284h-1007zM470 1656l207 393h331l-300 -393h-238z" />
<glyph unicode="&#xca;" horiz-adv-x="1260" d="M154 0v1489h1007v-284h-635v-261h585v-284h-585v-376h635v-284h-1007zM198 1656l301 393h241l301 -393h-259l-165 213l-164 -213h-255z" />
<glyph unicode="&#xcb;" horiz-adv-x="1260" d="M154 0v1489h1007v-284h-635v-261h585v-284h-585v-376h635v-284h-1007zM275 1656v273h287v-273h-287zM756 1656v273h287v-273h-287z" />
<glyph unicode="&#xcc;" horiz-adv-x="990" d="M94 0v260h214v969h-214v260h802v-260h-214v-969h214v-260h-802zM143 2049h331l207 -393h-238z" />
<glyph unicode="&#xcd;" horiz-adv-x="990" d="M94 0v260h214v969h-214v260h802v-260h-214v-969h214v-260h-802zM319 1656l207 393h331l-300 -393h-238z" />
<glyph unicode="&#xce;" horiz-adv-x="990" d="M76 1656l301 393h241l301 -393h-259l-165 213l-164 -213h-255zM94 0v260h214v969h-214v260h802v-260h-214v-969h214v-260h-802z" />
<glyph unicode="&#xcf;" horiz-adv-x="990" d="M94 0v260h214v969h-214v260h802v-260h-214v-969h214v-260h-802zM111 1656v273h287v-273h-287zM592 1656v273h287v-273h-287z" />
<glyph unicode="&#xd0;" horiz-adv-x="1585" d="M18 681v229h171v579h461q157 0 294 -20t257 -97q147 -94 232 -253.5t85 -375.5q0 -208 -91 -372.5t-230 -252.5q-117 -74 -253 -96t-290 -22h-465v681h-171zM561 279h8q126 0 212.5 4.5t164.5 53.5q92 58 140 160t48 249t-50.5 251.5t-155.5 163.5q-74 42 -158.5 46 t-200.5 4h-8v-301h320v-229h-320v-402z" />
<glyph unicode="&#xd1;" horiz-adv-x="1578" d="M154 0v1489h459l475 -853v853h342v-1489h-360l-574 1038v-1038h-342zM372 1658q6 146 82 233.5t203 87.5q48 0 89 -17t79 -39q30 -17 66 -36t59 -19q48 0 68.5 32t22.5 86h210q-10 -167 -83 -244.5t-203 -77.5q-48 0 -91 19.5t-74 38.5q-30 19 -66.5 38.5t-61.5 19.5 q-50 0 -68 -31.5t-22 -90.5h-210z" />
<glyph unicode="&#xd2;" horiz-adv-x="1577" d="M67 744q0 359 192 567.5t529 208.5q336 0 529 -207.5t193 -568.5t-193 -568t-529 -207q-337 0 -529 209.5t-192 565.5zM453 744q0 -137 27 -227.5t74 -151.5q48 -62 109 -88.5t126 -26.5q66 0 128 28.5t107 88.5q48 65 74 151.5t26 226.5q0 133 -27.5 226.5t-73.5 153.5 q-48 61 -108.5 87.5t-125.5 26.5q-69 0 -125 -24.5t-108 -87.5q-46 -58 -74.5 -154t-28.5 -229zM487 2049h331l207 -393h-238z" />
<glyph unicode="&#xd3;" horiz-adv-x="1577" d="M67 744q0 359 192 567.5t529 208.5q336 0 529 -207.5t193 -568.5t-193 -568t-529 -207q-337 0 -529 209.5t-192 565.5zM453 744q0 -137 27 -227.5t74 -151.5q48 -62 109 -88.5t126 -26.5q66 0 128 28.5t107 88.5q48 65 74 151.5t26 226.5q0 133 -27.5 226.5t-73.5 153.5 q-48 61 -108.5 87.5t-125.5 26.5q-69 0 -125 -24.5t-108 -87.5q-46 -58 -74.5 -154t-28.5 -229zM558 1656l207 393h331l-300 -393h-238z" />
<glyph unicode="&#xd4;" horiz-adv-x="1577" d="M67 744q0 359 192 567.5t529 208.5q336 0 529 -207.5t193 -568.5t-193 -568t-529 -207q-337 0 -529 209.5t-192 565.5zM373 1656l301 393h241l301 -393h-259l-165 213l-164 -213h-255zM453 744q0 -137 27 -227.5t74 -151.5q48 -62 109 -88.5t126 -26.5q66 0 128 28.5 t107 88.5q48 65 74 151.5t26 226.5q0 133 -27.5 226.5t-73.5 153.5q-48 61 -108.5 87.5t-125.5 26.5q-69 0 -125 -24.5t-108 -87.5q-46 -58 -74.5 -154t-28.5 -229z" />
<glyph unicode="&#xd5;" horiz-adv-x="1577" d="M67 744q0 359 192 567.5t529 208.5q336 0 529 -207.5t193 -568.5t-193 -568t-529 -207q-337 0 -529 209.5t-192 565.5zM340 1658q6 146 82 233.5t203 87.5q48 0 89 -17t79 -39q30 -17 66 -36t59 -19q48 0 68.5 32t22.5 86h210q-10 -167 -83 -244.5t-203 -77.5 q-48 0 -91 19.5t-74 38.5q-30 19 -66.5 38.5t-61.5 19.5q-50 0 -68 -31.5t-22 -90.5h-210zM453 744q0 -137 27 -227.5t74 -151.5q48 -62 109 -88.5t126 -26.5q66 0 128 28.5t107 88.5q48 65 74 151.5t26 226.5q0 133 -27.5 226.5t-73.5 153.5q-48 61 -108.5 87.5 t-125.5 26.5q-69 0 -125 -24.5t-108 -87.5q-46 -58 -74.5 -154t-28.5 -229z" />
<glyph unicode="&#xd6;" horiz-adv-x="1577" d="M67 744q0 359 192 567.5t529 208.5q336 0 529 -207.5t193 -568.5t-193 -568t-529 -207q-337 0 -529 209.5t-192 565.5zM404 1656v273h287v-273h-287zM453 744q0 -137 27 -227.5t74 -151.5q48 -62 109 -88.5t126 -26.5q66 0 128 28.5t107 88.5q48 65 74 151.5t26 226.5 q0 133 -27.5 226.5t-73.5 153.5q-48 61 -108.5 87.5t-125.5 26.5q-69 0 -125 -24.5t-108 -87.5q-46 -58 -74.5 -154t-28.5 -229zM885 1656v273h287v-273h-287z" />
<glyph unicode="&#xd7;" horiz-adv-x="1676" d="M238 1079l180 180l422 -423l417 418l180 -180l-418 -417l423 -422l-180 -180l-422 423l-417 -418l-180 180l418 417z" />
<glyph unicode="&#xd8;" horiz-adv-x="1577" d="M67 744q0 359 192 567.5t529 208.5q97 0 185.5 -20.5t168.5 -61.5l102 154h210l-170 -256q109 -104 167.5 -253.5t58.5 -338.5q0 -168 -46.5 -313t-138.5 -247q-96 -106 -231.5 -160.5t-305.5 -54.5q-98 0 -189.5 22t-168.5 63l-119 -180h-207l186 281 q-106 102 -164.5 251.5t-58.5 337.5zM446 744q0 -90 12 -163.5t35 -130.5l480 733q-39 31 -88 46t-96 15q-70 0 -127.5 -25t-109.5 -88q-48 -59 -77 -155.5t-29 -231.5zM600 309q43 -34 89.5 -49.5t99.5 -15.5q66 0 130.5 30.5t108.5 88.5q48 64 75.5 155t27.5 227 q0 82 -13.5 164.5t-35.5 133.5z" />
<glyph unicode="&#xd9;" horiz-adv-x="1513" d="M133 538v951h374v-929q0 -155 58.5 -231t190.5 -76q129 0 189.5 73t60.5 234v929h374v-950q0 -275 -157.5 -422.5t-466.5 -147.5q-300 0 -461.5 145t-161.5 424zM411 2049h331l207 -393h-238z" />
<glyph unicode="&#xda;" horiz-adv-x="1513" d="M133 538v951h374v-929q0 -155 58.5 -231t190.5 -76q129 0 189.5 73t60.5 234v929h374v-950q0 -275 -157.5 -422.5t-466.5 -147.5q-300 0 -461.5 145t-161.5 424zM549 1656l207 393h331l-300 -393h-238z" />
<glyph unicode="&#xdb;" horiz-adv-x="1513" d="M133 538v951h374v-929q0 -155 58.5 -231t190.5 -76q129 0 189.5 73t60.5 234v929h374v-950q0 -275 -157.5 -422.5t-466.5 -147.5q-300 0 -461.5 145t-161.5 424zM323 1656l301 393h241l301 -393h-259l-165 213l-164 -213h-255z" />
<glyph unicode="&#xdc;" horiz-adv-x="1513" d="M133 538v951h374v-929q0 -155 58.5 -231t190.5 -76q129 0 189.5 73t60.5 234v929h374v-950q0 -275 -157.5 -422.5t-466.5 -147.5q-300 0 -461.5 145t-161.5 424zM363 1656v273h287v-273h-287zM844 1656v273h287v-273h-287z" />
<glyph unicode="&#xdd;" horiz-adv-x="1373" d="M-19 1489h426l292 -532l281 532h412l-514 -867v-622h-374v603zM541 1646l207 393h331l-300 -393h-238z" />
<glyph unicode="&#xde;" horiz-adv-x="1350" d="M154 0v1489h374v-225h204q129 0 222.5 -23.5t169.5 -74.5q84 -56 130 -149.5t46 -222.5q0 -104 -33 -198t-95 -157q-90 -91 -199.5 -134t-248.5 -43h-196v-262h-374zM528 540h26q53 0 100 1t82 7q30 5 63.5 19.5t51.5 32.5q38 37 51.5 77t13.5 108q0 63 -30 108.5 t-72 62.5q-53 23 -101.5 26.5t-131.5 3.5h-53v-446z" />
<glyph unicode="&#xdf;" horiz-adv-x="1322" d="M134 0v1056q0 243 142 376.5t390 133.5q125 0 219.5 -28t157.5 -78q58 -47 89.5 -111.5t31.5 -138.5q0 -135 -81 -230t-198 -112v-9q175 -26 279 -130t104 -261q0 -236 -141.5 -359t-384.5 -123q-26 0 -70 4.5t-75 9.5v272h25q15 -5 45.5 -11.5t57.5 -6.5q81 0 134.5 61 t53.5 174t-70 160.5t-217 47.5v267q94 0 144.5 48.5t50.5 151.5q0 78 -39 120t-119 42q-94 0 -136.5 -63.5t-42.5 -176.5v-1086h-350z" />
<glyph unicode="&#xe0;" horiz-adv-x="1226" d="M50 322q0 125 50 202t144 122q95 46 227 64t284 28v6q0 93 -68.5 128.5t-205.5 35.5q-62 0 -145 -22.5t-162 -57.5h-30v271q52 15 168 35.5t234 20.5q290 0 422.5 -96.5t132.5 -294.5v-764h-348v119q-36 -30 -64.5 -54t-76.5 -48q-47 -23 -91.5 -35t-124.5 -12 q-149 0 -247.5 100t-98.5 252zM277 1676h331l207 -393h-238zM404 351q0 -79 42.5 -108.5t125.5 -29.5q46 0 94 21t87 59v234q-89 -9 -144 -15.5t-108 -25.5q-46 -16 -71.5 -48.5t-25.5 -86.5z" />
<glyph unicode="&#xe1;" horiz-adv-x="1226" d="M50 322q0 125 50 202t144 122q95 46 227 64t284 28v6q0 93 -68.5 128.5t-205.5 35.5q-62 0 -145 -22.5t-162 -57.5h-30v271q52 15 168 35.5t234 20.5q290 0 422.5 -96.5t132.5 -294.5v-764h-348v119q-36 -30 -64.5 -54t-76.5 -48q-47 -23 -91.5 -35t-124.5 -12 q-149 0 -247.5 100t-98.5 252zM385 1283l207 393h331l-300 -393h-238zM404 351q0 -79 42.5 -108.5t125.5 -29.5q46 0 94 21t87 59v234q-89 -9 -144 -15.5t-108 -25.5q-46 -16 -71.5 -48.5t-25.5 -86.5z" />
<glyph unicode="&#xe2;" horiz-adv-x="1226" d="M50 322q0 125 50 202t144 122q95 46 227 64t284 28v6q0 93 -68.5 128.5t-205.5 35.5q-62 0 -145 -22.5t-162 -57.5h-30v271q52 15 168 35.5t234 20.5q290 0 422.5 -96.5t132.5 -294.5v-764h-348v119q-36 -30 -64.5 -54t-76.5 -48q-47 -23 -91.5 -35t-124.5 -12 q-149 0 -247.5 100t-98.5 252zM158 1283l301 393h241l301 -393h-259l-165 213l-164 -213h-255zM404 351q0 -79 42.5 -108.5t125.5 -29.5q46 0 94 21t87 59v234q-89 -9 -144 -15.5t-108 -25.5q-46 -16 -71.5 -48.5t-25.5 -86.5z" />
<glyph unicode="&#xe3;" horiz-adv-x="1226" d="M50 322q0 125 50 202t144 122q95 46 227 64t284 28v6q0 93 -68.5 128.5t-205.5 35.5q-62 0 -145 -22.5t-162 -57.5h-30v271q52 15 168 35.5t234 20.5q290 0 422.5 -96.5t132.5 -294.5v-764h-348v119q-36 -30 -64.5 -54t-76.5 -48q-47 -23 -91.5 -35t-124.5 -12 q-149 0 -247.5 100t-98.5 252zM161 1285q6 146 82 233.5t203 87.5q48 0 89 -17t79 -39q30 -17 66 -36t59 -19q48 0 68.5 32t22.5 86h210q-10 -167 -83 -244.5t-203 -77.5q-48 0 -91 19.5t-74 38.5q-30 19 -66.5 38.5t-61.5 19.5q-50 0 -68 -31.5t-22 -90.5h-210zM404 351 q0 -79 42.5 -108.5t125.5 -29.5q46 0 94 21t87 59v234q-89 -9 -144 -15.5t-108 -25.5q-46 -16 -71.5 -48.5t-25.5 -86.5z" />
<glyph unicode="&#xe4;" horiz-adv-x="1226" d="M50 322q0 125 50 202t144 122q95 46 227 64t284 28v6q0 93 -68.5 128.5t-205.5 35.5q-62 0 -145 -22.5t-162 -57.5h-30v271q52 15 168 35.5t234 20.5q290 0 422.5 -96.5t132.5 -294.5v-764h-348v119q-36 -30 -64.5 -54t-76.5 -48q-47 -23 -91.5 -35t-124.5 -12 q-149 0 -247.5 100t-98.5 252zM199 1283v273h287v-273h-287zM404 351q0 -79 42.5 -108.5t125.5 -29.5q46 0 94 21t87 59v234q-89 -9 -144 -15.5t-108 -25.5q-46 -16 -71.5 -48.5t-25.5 -86.5zM680 1283v273h287v-273h-287z" />
<glyph unicode="&#xe5;" horiz-adv-x="1226" d="M50 322q0 125 50 202t144 122q95 46 227 64t284 28v6q0 93 -68.5 128.5t-205.5 35.5q-62 0 -145 -22.5t-162 -57.5h-30v271q50 15 131.5 30.5t182.5 22.5q-66 38 -107 106.5t-41 152.5q0 128 90 214.5t218 86.5q129 0 218.5 -86t89.5 -215q0 -92 -48 -165t-126 -108 q169 -25 259 -116t90 -258v-764h-348v119q-36 -30 -64.5 -54t-76.5 -48q-47 -23 -91.5 -35t-124.5 -12q-149 0 -247.5 100t-98.5 252zM404 351q0 -79 42.5 -108.5t125.5 -29.5q46 0 94 21t87 59v234q-89 -9 -144 -15.5t-108 -25.5q-46 -16 -71.5 -48.5t-25.5 -86.5z M482 1410q0 -63 38 -104.5t98 -41.5t98 42t38 104t-38.5 105t-97.5 43t-97.5 -42.5t-38.5 -105.5z" />
<glyph unicode="&#xe6;" horiz-adv-x="1919" d="M50 322q0 124 51 199.5t143 119.5q91 43 220 61t291 26v16q0 93 -68.5 128.5t-205.5 35.5q-62 0 -145 -22.5t-162 -57.5h-30v271q52 15 168 35.5t234 20.5q144 0 252 -36t178 -92q66 51 167.5 91t212.5 40q258 0 388 -139t130 -398v-126h-767q5 -78 33 -130.5t74 -83.5 q45 -31 105 -44.5t131 -13.5q61 0 120 13.5t108 35.5q43 19 79.5 41t59.5 39h37v-289q-43 -17 -78.5 -31.5t-97.5 -29.5q-57 -15 -117.5 -23.5t-147.5 -8.5q-209 0 -314.5 39.5t-200.5 134.5q-33 -32 -75.5 -64.5t-92.5 -55.5q-55 -26 -111.5 -40t-137.5 -14 q-212 0 -321.5 93t-109.5 259zM404 351q0 -71 39.5 -104.5t128.5 -33.5q69 0 131 29t99 68q-20 53 -29 104.5t-11 100.5q-79 -6 -139.5 -12.5t-113.5 -22.5q-48 -15 -76.5 -46t-28.5 -83zM1106 706h423q-3 111 -51.5 169t-148.5 58q-103 0 -160.5 -62t-62.5 -165z" />
<glyph unicode="&#xe7;" horiz-adv-x="1080" d="M52 557q0 161 51 274t138 186q84 70 197.5 103.5t236.5 33.5q93 0 186 -21.5t187 -68.5v-300h-45q-21 20 -51.5 44t-66.5 44q-38 21 -86 35.5t-107 14.5q-134 0 -207.5 -93.5t-73.5 -251.5q0 -169 78.5 -253t208.5 -84q66 0 117 15.5t85 36.5q35 22 59 43.5t44 41.5h45 v-300q-29 -12 -73.5 -30.5t-85.5 -29.5q0 -14 1 -36t1 -47q0 -162 -95.5 -249.5t-249.5 -87.5q-36 0 -102.5 7t-100.5 17v200h19q24 -11 68 -23t84 -12q76 0 119 40.5t43 119.5v20v26q-139 1 -252 36t-197 108q-83 72 -129 182.5t-46 258.5z" />
<glyph unicode="&#xe8;" horiz-adv-x="1216" d="M52 555q0 275 158 439t442 164q258 0 388 -139t130 -398v-126h-767q5 -78 33 -130.5t74 -83.5q45 -31 105 -44.5t131 -13.5q61 0 120 13.5t108 35.5q43 19 79.5 41t59.5 39h37v-289q-43 -17 -78.5 -31.5t-97.5 -29.5q-57 -15 -117.5 -23.5t-147.5 -8.5q-318 0 -487.5 152 t-169.5 433zM311 1676h331l207 -393h-238zM402 706h423q-3 111 -51.5 169t-148.5 58q-102 0 -159.5 -61t-63.5 -166z" />
<glyph unicode="&#xe9;" horiz-adv-x="1216" d="M52 555q0 275 158 439t442 164q258 0 388 -139t130 -398v-126h-767q5 -78 33 -130.5t74 -83.5q45 -31 105 -44.5t131 -13.5q61 0 120 13.5t108 35.5q43 19 79.5 41t59.5 39h37v-289q-43 -17 -78.5 -31.5t-97.5 -29.5q-57 -15 -117.5 -23.5t-147.5 -8.5q-318 0 -487.5 152 t-169.5 433zM402 706h423q-3 111 -51.5 169t-148.5 58q-102 0 -159.5 -61t-63.5 -166zM441 1283l207 393h331l-300 -393h-238z" />
<glyph unicode="&#xea;" horiz-adv-x="1216" d="M52 555q0 275 158 439t442 164q258 0 388 -139t130 -398v-126h-767q5 -78 33 -130.5t74 -83.5q45 -31 105 -44.5t131 -13.5q61 0 120 13.5t108 35.5q43 19 79.5 41t59.5 39h37v-289q-43 -17 -78.5 -31.5t-97.5 -29.5q-57 -15 -117.5 -23.5t-147.5 -8.5q-318 0 -487.5 152 t-169.5 433zM219 1283l301 393h241l301 -393h-259l-165 213l-164 -213h-255zM402 706h423q-3 111 -51.5 169t-148.5 58q-102 0 -159.5 -61t-63.5 -166z" />
<glyph unicode="&#xeb;" horiz-adv-x="1216" d="M52 555q0 275 158 439t442 164q258 0 388 -139t130 -398v-126h-767q5 -78 33 -130.5t74 -83.5q45 -31 105 -44.5t131 -13.5q61 0 120 13.5t108 35.5q43 19 79.5 41t59.5 39h37v-289q-43 -17 -78.5 -31.5t-97.5 -29.5q-57 -15 -117.5 -23.5t-147.5 -8.5q-318 0 -487.5 152 t-169.5 433zM256 1283v273h287v-273h-287zM402 706h423q-3 111 -51.5 169t-148.5 58q-102 0 -159.5 -61t-63.5 -166zM737 1283v273h287v-273h-287z" />
<glyph unicode="&#xec;" horiz-adv-x="618" d="M1 1676h331l207 -393h-238zM134 0v1123h350v-1123h-350z" />
<glyph unicode="&#xed;" horiz-adv-x="618" d="M96 1283l207 393h331l-300 -393h-238zM134 0v1123h350v-1123h-350z" />
<glyph unicode="&#xee;" horiz-adv-x="618" d="M-44 1283l234 393h235l234 -393h-229l-125 213l-124 -213h-225zM134 0v1123h350v-1123h-350z" />
<glyph unicode="&#xef;" horiz-adv-x="618" d="M-36 1283v273h280v-273h-280zM134 0v1123h350v-1123h-350zM378 1283v273h280v-273h-280z" />
<glyph unicode="&#xf0;" horiz-adv-x="1269" d="M52 517q0 120 41.5 215.5t117.5 165.5q72 65 169 99t203 34q70 0 129 -13t121 -45q-20 57 -66 126t-103 126l-319 -133l-79 174l249 100q-72 61 -141.5 105t-117.5 60v25h430q10 -4 36 -22.5t73 -53.5l214 92l78 -173l-140 -59q62 -70 106.5 -137.5t77.5 -142.5 q37 -85 59 -181.5t22 -213.5q0 -333 -150 -516.5t-435 -183.5q-260 0 -417.5 144.5t-157.5 407.5zM413 523q0 -144 57 -225.5t167 -81.5q48 0 89.5 20.5t68.5 65.5q30 48 46 119.5t16 185.5q0 25 -2.5 58.5t-4.5 46.5q-50 41 -100.5 59.5t-107.5 18.5q-113 0 -171 -69 t-58 -198z" />
<glyph unicode="&#xf1;" horiz-adv-x="1311" d="M134 0v1123h350v-124q86 73 167.5 114t180.5 41q172 0 263 -108.5t91 -314.5v-731h-352v557q0 68 -5.5 135.5t-20.5 99.5q-18 38 -52 54.5t-91 16.5q-43 0 -87 -16t-94 -51v-796h-350zM229 1285q6 146 82 233.5t203 87.5q48 0 89 -17t79 -39q30 -17 66 -36t59 -19 q48 0 68.5 32t22.5 86h210q-10 -167 -83 -244.5t-203 -77.5q-48 0 -91 19.5t-74 38.5q-30 19 -66.5 38.5t-61.5 19.5q-50 0 -68 -31.5t-22 -90.5h-210z" />
<glyph unicode="&#xf2;" horiz-adv-x="1264" d="M52 561q0 280 152.5 438.5t427.5 158.5q276 0 428 -159.5t152 -437.5q0 -277 -151.5 -436.5t-428.5 -159.5q-275 0 -427.5 159.5t-152.5 436.5zM301 1676h331l207 -393h-238zM411 559q0 -103 17 -166.5t44 -101.5q28 -39 70 -57t93 -18q42 0 85.5 18t69.5 54 q31 43 47 103.5t16 167.5q0 100 -16.5 166.5t-45.5 106.5q-31 42 -70 58.5t-89 16.5q-47 0 -85 -14.5t-70 -55.5q-30 -39 -48 -107t-18 -171z" />
<glyph unicode="&#xf3;" horiz-adv-x="1264" d="M52 561q0 280 152.5 438.5t427.5 158.5q276 0 428 -159.5t152 -437.5q0 -277 -151.5 -436.5t-428.5 -159.5q-275 0 -427.5 159.5t-152.5 436.5zM411 559q0 -103 17 -166.5t44 -101.5q28 -39 70 -57t93 -18q42 0 85.5 18t69.5 54q31 43 47 103.5t16 167.5 q0 100 -16.5 166.5t-45.5 106.5q-31 42 -70 58.5t-89 16.5q-47 0 -85 -14.5t-70 -55.5q-30 -39 -48 -107t-18 -171zM439 1283l207 393h331l-300 -393h-238z" />
<glyph unicode="&#xf4;" horiz-adv-x="1264" d="M52 561q0 280 152.5 438.5t427.5 158.5q276 0 428 -159.5t152 -437.5q0 -277 -151.5 -436.5t-428.5 -159.5q-275 0 -427.5 159.5t-152.5 436.5zM221 1283l301 393h241l301 -393h-259l-165 213l-164 -213h-255zM411 559q0 -103 17 -166.5t44 -101.5q28 -39 70 -57t93 -18 q42 0 85.5 18t69.5 54q31 43 47 103.5t16 167.5q0 100 -16.5 166.5t-45.5 106.5q-31 42 -70 58.5t-89 16.5q-47 0 -85 -14.5t-70 -55.5q-30 -39 -48 -107t-18 -171z" />
<glyph unicode="&#xf5;" horiz-adv-x="1264" d="M52 561q0 280 152.5 438.5t427.5 158.5q276 0 428 -159.5t152 -437.5q0 -277 -151.5 -436.5t-428.5 -159.5q-275 0 -427.5 159.5t-152.5 436.5zM191 1285q6 146 82 233.5t203 87.5q48 0 89 -17t79 -39q30 -17 66 -36t59 -19q48 0 68.5 32t22.5 86h210 q-10 -167 -83 -244.5t-203 -77.5q-48 0 -91 19.5t-74 38.5q-30 19 -66.5 38.5t-61.5 19.5q-50 0 -68 -31.5t-22 -90.5h-210zM411 559q0 -103 17 -166.5t44 -101.5q28 -39 70 -57t93 -18q42 0 85.5 18t69.5 54q31 43 47 103.5t16 167.5q0 100 -16.5 166.5t-45.5 106.5 q-31 42 -70 58.5t-89 16.5q-47 0 -85 -14.5t-70 -55.5q-30 -39 -48 -107t-18 -171z" />
<glyph unicode="&#xf6;" horiz-adv-x="1264" d="M52 561q0 280 152.5 438.5t427.5 158.5q276 0 428 -159.5t152 -437.5q0 -277 -151.5 -436.5t-428.5 -159.5q-275 0 -427.5 159.5t-152.5 436.5zM249 1283v273h287v-273h-287zM411 559q0 -103 17 -166.5t44 -101.5q28 -39 70 -57t93 -18q42 0 85.5 18t69.5 54 q31 43 47 103.5t16 167.5q0 100 -16.5 166.5t-45.5 106.5q-31 42 -70 58.5t-89 16.5q-47 0 -85 -14.5t-70 -55.5q-30 -39 -48 -107t-18 -171zM730 1283v273h287v-273h-287z" />
<glyph unicode="&#xf7;" horiz-adv-x="1676" d="M194 528v258h1288v-258h-1288zM684 0v330h308v-330h-308zM684 984v330h308v-330h-308z" />
<glyph unicode="&#xf8;" horiz-adv-x="1264" d="M52 561q0 280 152.5 438.5t427.5 158.5q80 0 146.5 -16t125.5 -42l101 153h175l-153 -228q91 -79 138 -192.5t47 -271.5q0 -277 -151.5 -436.5t-428.5 -159.5q-75 0 -145.5 16.5t-126.5 41.5l-121 -185h-174l172 260q-90 77 -137.5 196.5t-47.5 266.5zM405 559 q0 -60 6 -107.5t14 -81.5l330 507q-26 19 -57 27.5t-66 8.5q-48 0 -86.5 -14.5t-72.5 -56.5q-30 -37 -49 -109.5t-19 -173.5zM510 245q26 -18 56 -26.5t69 -8.5q43 0 87 17.5t72 55.5q33 45 49 112.5t16 163.5q0 51 -6 105.5t-14 85.5z" />
<glyph unicode="&#xf9;" horiz-adv-x="1311" d="M125 392v731h352v-557q0 -87 4.5 -142t21.5 -93q16 -35 49.5 -53t93.5 -18q37 0 87.5 18t93.5 49v796h350v-1123h-350v124q-91 -76 -167 -115.5t-181 -39.5q-167 0 -260.5 105.5t-93.5 317.5zM335 1676h331l207 -393h-238z" />
<glyph unicode="&#xfa;" horiz-adv-x="1311" d="M125 392v731h352v-557q0 -87 4.5 -142t21.5 -93q16 -35 49.5 -53t93.5 -18q37 0 87.5 18t93.5 49v796h350v-1123h-350v124q-91 -76 -167 -115.5t-181 -39.5q-167 0 -260.5 105.5t-93.5 317.5zM433 1283l207 393h331l-300 -393h-238z" />
<glyph unicode="&#xfb;" horiz-adv-x="1311" d="M125 392v731h352v-557q0 -87 4.5 -142t21.5 -93q16 -35 49.5 -53t93.5 -18q37 0 87.5 18t93.5 49v796h350v-1123h-350v124q-91 -76 -167 -115.5t-181 -39.5q-167 0 -260.5 105.5t-93.5 317.5zM225 1283l301 393h241l301 -393h-259l-165 213l-164 -213h-255z" />
<glyph unicode="&#xfc;" horiz-adv-x="1311" d="M125 392v731h352v-557q0 -87 4.5 -142t21.5 -93q16 -35 49.5 -53t93.5 -18q37 0 87.5 18t93.5 49v796h350v-1123h-350v124q-91 -76 -167 -115.5t-181 -39.5q-167 0 -260.5 105.5t-93.5 317.5zM263 1283v273h287v-273h-287zM744 1283v273h287v-273h-287z" />
<glyph unicode="&#xfd;" horiz-adv-x="1179" d="M-3 1123h368l236 -704l221 704h360l-567 -1535h-376l170 439zM420 1283l207 393h331l-300 -393h-238z" />
<glyph unicode="&#xfe;" horiz-adv-x="1289" d="M134 -412v1968h350v-550q77 66 157 107t185 41q195 0 302 -155t107 -422q0 -269 -136.5 -434t-336.5 -165q-84 0 -146 19t-132 59v-468h-350zM484 257q28 -12 61.5 -17t79.5 -5q128 0 190 83.5t62 251.5q0 164 -50.5 238t-157.5 74q-47 0 -93.5 -15t-91.5 -45v-565z" />
<glyph unicode="&#xff;" horiz-adv-x="1179" d="M-3 1123h368l236 -704l221 704h360l-567 -1535h-376l170 439zM211 1283v273h287v-273h-287zM692 1283v273h287v-273h-287z" />
<glyph unicode="&#x152;" horiz-adv-x="2123" d="M67 746q0 198 87.5 364.5t233.5 260.5q83 55 205.5 86.5t337.5 31.5h1092v-284h-635v-261h585v-284h-585v-376h635v-284h-1088q-211 0 -337.5 30.5t-213.5 86.5q-148 95 -232.5 254.5t-84.5 374.5zM451 743q0 -147 50.5 -251.5t155.5 -163.5q37 -20 77.5 -31.5 t81.5 -14.5q42 -4 91.5 -4h108.5v932h-116t-96 -5q-52 -6 -86 -16t-79 -37q-95 -58 -141.5 -162t-46.5 -247z" />
<glyph unicode="&#x153;" horiz-adv-x="2018" d="M52 561q0 280 152.5 438.5t427.5 158.5q130 0 235.5 -47t171.5 -112q58 68 172 113.5t243 45.5q258 0 388 -139t130 -398v-126h-767q5 -78 33 -130.5t74 -83.5q45 -31 105 -44.5t131 -13.5q61 0 120 13.5t108 35.5q43 19 79.5 41t59.5 39h37v-289q-43 -17 -78.5 -31.5 t-97.5 -29.5q-57 -15 -117.5 -23.5t-147.5 -8.5q-148 0 -277 44.5t-193 117.5q-69 -74 -171.5 -120.5t-237.5 -46.5q-271 0 -425.5 157t-154.5 439zM411 559q0 -168 53.5 -255.5t170.5 -87.5q42 0 85.5 18t69.5 54q35 49 49 114.5t14 156.5q0 172 -53 260t-168 88 q-47 0 -85 -14.5t-70 -55.5q-30 -39 -48 -107t-18 -171zM1204 706h423q-3 111 -51.5 169t-148.5 58q-103 0 -160.5 -62t-62.5 -165z" />
<glyph unicode="&#x178;" horiz-adv-x="1373" d="M-19 1489h426l292 -532l281 532h412l-514 -867v-622h-374v603zM313 1656v273h287v-273h-287zM794 1656v273h287v-273h-287z" />
<glyph unicode="&#x2c6;" horiz-adv-x="1118" d="M138 1283l301 393h241l301 -393h-259l-165 213l-164 -213h-255z" />
<glyph unicode="&#x2dc;" horiz-adv-x="1118" d="M121 1285q6 146 82 233.5t203 87.5q48 0 89 -17t79 -39q30 -17 66 -36t59 -19q48 0 68.5 32t22.5 86h210q-10 -167 -83 -244.5t-203 -77.5q-48 0 -91 19.5t-74 38.5q-30 19 -66.5 38.5t-61.5 19.5q-50 0 -68 -31.5t-22 -90.5h-210z" />
<glyph unicode="&#x2000;" horiz-adv-x="1024" />
<glyph unicode="&#x2001;" horiz-adv-x="2049" />
<glyph unicode="&#x2002;" horiz-adv-x="1024" />
<glyph unicode="&#x2003;" horiz-adv-x="2049" />
<glyph unicode="&#x2004;" horiz-adv-x="683" />
<glyph unicode="&#x2005;" horiz-adv-x="512" />
<glyph unicode="&#x2006;" horiz-adv-x="341" />
<glyph unicode="&#x2007;" horiz-adv-x="341" />
<glyph unicode="&#x2008;" horiz-adv-x="256" />
<glyph unicode="&#x2009;" horiz-adv-x="409" />
<glyph unicode="&#x200a;" horiz-adv-x="113" />
<glyph unicode="&#x2010;" horiz-adv-x="883" d="M110 518v278h663v-278h-663z" />
<glyph unicode="&#x2011;" horiz-adv-x="883" d="M110 518v278h663v-278h-663z" />
<glyph unicode="&#x2012;" horiz-adv-x="883" d="M110 518v278h663v-278h-663z" />
<glyph unicode="&#x2013;" d="M-4 528v258h1312v-258h-1312z" />
<glyph unicode="&#x2014;" horiz-adv-x="1862" d="M-4 528v258h1870v-258h-1870z" />
<glyph unicode="&#x2018;" horiz-adv-x="564" d="M-26 1556h338l157 -589h-224z" />
<glyph unicode="&#x2019;" horiz-adv-x="564" d="M95 967l157 589h338l-271 -589h-224z" />
<glyph unicode="&#x201a;" horiz-adv-x="564" d="M44 -305l157 589h338l-271 -589h-224z" />
<glyph unicode="&#x201c;" horiz-adv-x="1002" d="M-26 1556h338l157 -589h-224zM412 1556h338l157 -589h-224z" />
<glyph unicode="&#x201d;" horiz-adv-x="1002" d="M95 967l157 589h338l-271 -589h-224zM533 967l157 589h338l-271 -589h-224z" />
<glyph unicode="&#x201e;" horiz-adv-x="1002" d="M47 -305l157 589h338l-271 -589h-224zM485 -305l157 589h338l-271 -589h-224z" />
<glyph unicode="&#x2022;" d="M164 668q0 200 143.5 343.5t343.5 143.5q202 0 345 -143.5t143 -343.5q0 -201 -144 -344t-344 -143t-343.5 143.5t-143.5 343.5z" />
<glyph unicode="&#x2026;" horiz-adv-x="2048" d="M171 0v393h340v-393h-340zM854 0v393h340v-393h-340zM1537 0v393h340v-393h-340z" />
<glyph unicode="&#x202f;" horiz-adv-x="409" />
<glyph unicode="&#x2039;" horiz-adv-x="870" d="M128 594v129l560 445v-296l-281 -214l281 -214v-296z" />
<glyph unicode="&#x203a;" horiz-adv-x="870" d="M182 148v296l281 214l-281 214v296l560 -445v-129z" />
<glyph unicode="&#x205f;" horiz-adv-x="512" />
<glyph unicode="&#x20ac;" d="M-38 474l38 188h70q-3 40 -3 81q0 29 1 57h-106l38 188h96q61 246 239 385q185 145 462 145q223 0 441 -94v-332h-38q-185 147 -343 147q-264 0 -361 -251h515l-37 -188h-519q-2 -29 -2 -58q0 -41 4 -80h488l-37 -188h-402q103 -225 352 -225q157 0 342 148h38v-333 q-217 -93 -442 -93q-276 0 -458 136q-174 130 -238 367h-138z" />
<glyph unicode="&#x2122;" horiz-adv-x="1763" d="M86 1332v157h585v-157h-199v-547h-187v547h-199zM786 785v704h299l140 -344l146 344h282v-704h-174v546h-20l-174 -383h-125l-176 390h-25v-553h-173z" />
<glyph unicode="&#x25fc;" horiz-adv-x="1125" d="M0 0v1125h1125v-1125h-1125z" />
<glyph unicode="&#xfb01;" horiz-adv-x="1387" d="M21 879v244h140v31q0 205 106 308.5t320 103.5q73 0 136.5 -6t104.5 -14v-251h-26q-19 6 -55.5 14.5t-74.5 8.5q-100 0 -137.5 -41t-37.5 -145v-9h755v-1123h-350v886h-391v-886h-350v879h-140zM922 1283v273h340v-273h-340z" />
<glyph unicode="&#xfb02;" horiz-adv-x="1402" d="M21 879v244h140v29q0 114 34 190t104 128q65 48 167 72t238 24q81 0 193.5 -14t150.5 -18l219 22v-1556h-350v1308q-31 5 -78 8.5t-92 3.5q-49 0 -87 -6t-79 -26q-36 -18 -59 -52t-23 -85v-28h278v-244h-266v-879h-350v879h-140z" />
</font>
</defs>
</svg>
